Furious Seven

720p.EXTENDED.BrRip

720p-1080p

Deckard Shaw seeks revenge against Dominic Toretto and his family for his comatose brother…

 

F̶u̶r̶i̶o̶u̶s̶.̶7̶.̶2̶0̶1̶5̶.̶7̶2̶0̶p̶.̶H̶C̶.̶W̶E̶B̶R̶i̶p̶.̶2̶C̶H̶.̶x̶2̶6̶5̶.̶H̶E̶V̶C̶-̶P̶S̶A̶

Release Notes:

The source had hardcoded subtitle on it and so has the release. Check the sample before you download . take it or wait for a proper source.

[collapse]
Info

General
Format : Matroska
File size : 786 MiB
Duration : 2h 17mn 13sc
IMDB : https://www.imdb.com/title/tt2820852/
Source : Furious.7.2015.1080p.WEBRip.KORSUB.x264.AAC2.0-RARBG | 5.45GB

Video
Format : HEVC
Format/Info : High Efficiency Video Coding
Width : 1 280 pixels
Height : 536 pixels
Display aspect ratio : 2.40:1
Frame rate mode : Variable
Original frame rate : 29.970 fps
Color space : YUV
Chroma subsampling : 4:2:0
Bit depth : 8 bits

Audio
Format : AAC
Format/Info : Advanced Audio Codec
Channel(s) : 2 channels
Channel positions : Front: L R
Sampling rate : 48.0 KHz / 24.0 KHz
Compression mode : Lossy
Title : Stereo
Language : English

Text
Format : UTF-8
Codec ID/Info : UTF-8 Plain Text
Default : Yes
Forced : No

[collapse]

Download

TorrentTORRENT

Size: 786 MB

[collapse]


Furious.Seven.2015.EXTENDED.SD.BrRip.2CH.x265.HEVC-PSA

Info

General
Format : Matroska
File size : 469 MiB
Duration : 2h 19mn 54sc
Source : Furious.Seven.2015.EXTENDED.1080p.BluRay.x264-SPARKS | 9.82GB

Video
Format : HEVC
Format/Info : High Efficiency Video Coding
Width : 720 pixels
Height : 304 pixels
Display aspect ratio : 2.35:1
Frame rate mode : Constant
Frame rate : 23.976 fps
Color space : YUV
Chroma subsampling : 4:2:0
Bit depth : 8 bits

Audio
Format : AAC
Format/Info : Advanced Audio Codec
Channel(s) : 2 channels
Channel positions : Front: L R
Sampling rate : 48.0 KHz / 24.0 KHz
Compression mode : Lossy
Title : Stereo
Language : English

Text #1
Format : UTF-8
Codec ID/Info : UTF-8 Plain Text
Title : ENG
Default : Yes
Forced : No

Text #2
Format : UTF-8
Codec ID/Info : UTF-8 Plain Text
Title : ENG SDH
Default : No
Forced : No

[collapse]
Download

Torrent TORRENT

Size: 469 MB

[collapse]


Furious.Seven.2015.EXTENDED.720p.BrRip.2CH.x265.HEVC-PSA

Info

General
Format : Matroska
File size : 992 MiB
Duration : 2h 19mn 54sc
Source : Furious.Seven.2015.EXTENDED.1080p.BluRay.x264-SPARKS | 9.82GB

Video
Format : HEVC
Format/Info : High Efficiency Video Coding
Width : 1 280 pixels
Height : 536 pixels
Display aspect ratio : 2.40:1
Frame rate mode : Constant
Frame rate : 23.976 fps
Color space : YUV
Chroma subsampling : 4:2:0
Bit depth : 8 bits

Audio
Format : AAC
Format/Info : Advanced Audio Codec
Channel(s) : 2 channels
Channel positions : Front: L R
Sampling rate : 48.0 KHz / 24.0 KHz
Compression mode : Lossy
Title : Stereo
Language : English

Text #1
Format : UTF-8
Codec ID/Info : UTF-8 Plain Text
Title : ENG
Default : Yes
Forced : No

Text #2
Format : UTF-8
Codec ID/Info : UTF-8 Plain Text
Title : ENG SDH
Default : No
Forced : No

[collapse]
Download

Torrent TORRENT

Size: 992 MB

[collapse]
Release Notes

I could do it in smaller size, but let’s enjoy a better Video/Audio quality for this one. I will upload an SD version later as well as 1080p.

[collapse]


Furious.Seven.2015.EXTENDED.1080p.BrRip.6CH.x265.HEVC-PSA

Info

General
Format : Matroska
File size : 2.18 GiB
Duration : 2h 19mn
Source : Furious.Seven.2015.EXTENDED.1080p.BluRay.x264-SPARKS | 9.82GB

Video
Format : HEVC
Format/Info : High Efficiency Video Coding
Width : 1 920 pixels
Height : 800 pixels
Display aspect ratio : 2.40:1
Frame rate mode : Constant
Frame rate : 23.976 fps
Color space : YUV
Chroma subsampling : 4:2:0
Bit depth : 8 bits

Audio
Format : AAC
Format/Info : Advanced Audio Codec
Channel(s) : 6 channels
Channel positions : Front: L C R, Side: L R, LFE
Sampling rate : 48.0 KHz / 24.0 KHz
Compression mode : Lossy
Title : Surround
Language : English

Text #1
Format : UTF-8
Codec ID/Info : UTF-8 Plain Text
Title : ENG
Default : Yes
Forced : No

Text #2
Format : UTF-8
Codec ID/Info : UTF-8 Plain Text
Title : ENG SDH
Default : No
Forced : No

[collapse]


Furious.Seven.2015.EXTENDED.1080p.HQ.10bit.BluRay.DTS.x265.HEVC-PSA

Info

General
Format : Matroska
File size : 5.81 GiB
Duration : 2h 19mn 54sc
Overall bit rate : 5 956 Kbps
IMDB : https://www.imdb.com/title/tt2820852/
Source : Furious.Seven.2015.EXTENDED.1080p.BluRay.REMUX.AVC.DTS-HD.MA.7.1 | 28.8GB

Video
Format : HEVC
Format/Info : High Efficiency Video Coding
Format profile : Main 10@L4@Main
Bit rate : 4 328 Kbps
Width : 1 920 pixels
Height : 800 pixels
Display aspect ratio : 2.40:1
Frame rate mode : Constant
Frame rate : 23.976 fps
Color space : YUV
Chroma subsampling : 4:2:0
Bit depth : 10 bits
Stream size : 4.23 GiB (73%)
Title : PSA
Default : Yes
Forced : No

Audio
Format : DTS
Format/Info : Digital Theater Systems
Mode : 16
Bit rate mode : Constant
Bit rate : 1 509 Kbps
Channel(s) : 6 channels
Channel positions : Front: L C R, Side: L R, LFE
Sampling rate : 48.0 KHz
Bit depth : 24 bits
Compression mode : Lossy
Stream size : 1.47 GiB (25%)
Title : ENG DTS PSA
Language : English
Default : No
Forced : No

Text #1
Format : UTF-8
Codec ID/Info : UTF-8 Plain Text
Title : ENG
Default : Yes
Forced : No

Text #2
Format : UTF-8
Codec ID/Info : UTF-8 Plain Text
Title : ENG SDH
Default : No
Forced : No

[collapse]
Release Notes

There’s no point to convert an 8bit source to a 10bit release. It’s like encoding a 2CH audio to a 5.1CH one. But since x265 messes up black color in some conditions, as requested, I did this release. Also, the original BluRay has a medium quality. Check the sample before downloading the release. It’s the best out of the BluRay…

[collapse]

External Audio

DTS Audio

Size: 1.47 GB

[collapse]

ReEncoded HE-AAC 6CH

Size: 242 MB

[collapse]

Various Artists – Furious 7 (Original Motion Picture Soundtrack)

Download

Quality: iTunes Plus AAC M4A
Size: 123 MB

Track list:
1- Kid Ink, Tyga, YG, Wale & Rich Homie Quan – Ride Out
2- T.I. & Young Thug – Off-Set
3- Sevyn Streeter – How Bad Do You Want It (Oh Yeah)
4- DJ Snake & Dillon Francis – Get Low
5- Wiz Khalifa & Iggy Azalea – Go Hard Or Go Home
6- Prince Royce – My Angel
7- Wiz Khalifa – See You Again (feat. Charlie Puth)
8- Juicy J, Kevin Gates, Future & Sage the Gemini – Payback
9- David Guetta & Kaz James – Blast Off
10- DJ Shadow – Six Days (feat. Mos Def) [Remix]
11- J Balvin – Ay Vamos (feat. French Montana & Nicky Jam)
12- Flo Rida – GDFR (feat. Sage the Gemini and Lookas) [Noodles Remix]
13- DJ Snake & Lil Jon – Turn Down For What
14- Fito Blanko – Meneo
15- Skylar Grey – I Will Return
16- Famous to Most – Whip (Bonus Track)

[collapse]

 

Brian Tyler – Furious 7 (Original Motion Picture Score)

Download

Quality: iTunes Plus AAC M4A
Size: 175 MB

Track list:
01- Furious 7
02- Paratroopers
03- Awakening
04- Operation Ramsey
05- Battle of the Titans
06- Parting Ways
07- Mountain Hijack
08- Homecoming
09- Beast In a Cage
10- Homefront
11- Vow For Revenge
12- Party Crashers
13- The Three Towers
14- God’s Eye
15- When Worlds Collide
16- Remembrance
17- Hobbs Is the Cavalry
18- Operation Carjack
19- A Completely Insane Plan
20- Letty and Dom
21- Heist In the Desert
22- No More Funerals
23- Hobbs vs Shaw
24- Connected
25- About To Get Real Serious Up In Here
26- Family
27- One Last Stand
28- Farewell
+ Digital Booklet – Furious 7

[collapse]

You may also like...

Leave a Reply

Please Login to comment