MTV Video Music Awards

Update -> MTV.Video.Music.Awards.2016.720p.HDTV

An MTV Video Music Award (commonly abbreviated as a VMA) is an award presented by the cable channel MTV to honor the best in the music video medium.


MTV.Video.Music.Awards.2015.720p.HDTV.2CH.x265.HEVC-PSA

Info

General
Format : Matroska
File size : 1.37 GiB
Duration : 1h 44mn 30sc
Source: MTV.Video.Music.Awards.2015.720p.HDTV.x264-ALTEREGO | 3.64GB

Video
Format : HEVC
Format/Info : High Efficiency Video Coding
Bit rate : 1 449 Kbps
Width : 1 280 pixels
Height : 720 pixels
Display aspect ratio : 16:9
Frame rate mode : Constant
Frame rate : 29.970 fps
Color space : YUV
Chroma subsampling : 4:2:0
Bit depth : 8 bits

Audio
Format : AC-3
Format/Info : Audio Coding 3
Channel(s) : 2 channels
Channel positions : Front: L R
Sampling rate : 48.0 KHz
Compression mode : Lossy
Stream size : 287 MiB (21%)
Title : Stereo

The audio is untouched

[collapse]

Download

TorrentTORRENT

Size: 1.37 GB

[collapse]


MTV.Video.Music.Awards.2015.SD.HDTV.2CH.x265.HEVC-PSA

Info

General
Format : Matroska
File size : 811 MiB
Duration : 1h 44mn 30sc
Source: MTV.Video.Music.Awards.2015.720p.HDTV.x264-ALTEREGO | 3.64GB

Video
Format : HEVC
Format/Info : High Efficiency Video Coding
Bit rate : 679 Kbps
Width : 720 pixels
Height : 408 pixels
Display aspect ratio : 16:9
Frame rate mode : Constant
Frame rate : 29.970 fps
Color space : YUV
Chroma subsampling : 4:2:0
Bit depth : 8 bits

Audio
Format : AC-3
Format/Info : Audio Coding 3
Channel(s) : 2 channels
Channel positions : Front: L R
Sampling rate : 48.0 KHz
Compression mode : Lossy
Stream size : 287 MiB (21%)
Title : Stereo

The audio is untouched

[collapse]

Download

TorrentTORRENT

Size: 810 MB

[collapse]


MTV.Video.Music.Awards.2016.720p.HDTV.2CH.x265.HEVC-PSA

Info

General
File size : 1.48 GB
Duration : 2h 08mn 30sc
IMDB : https://www.imdb.com/title/tt4855748/
Source : MTV.Video.Music.Awards.2016.720p.HDTV.x264-ALTEREGO | 3.77 GB

Video
Format : HEVC
Format/Info : High Efficiency Video Coding
Width : 1 280 pixels
Height : 720 pixels
Display aspect ratio : 16:9
Frame rate mode : Constant
Frame rate : 29.970 (30000/1001) fps
Color space : YUV
Chroma subsampling : 4:2:0
Bit depth : 8 bits
Default : Yes
Forced : No

Audio
Format : AC-3
Format/Info : Audio Coding 3
Channel(s) : 2 channels
Channel positions : Front: L R
Sampling rate : 48.0 KHz
Compression mode : Lossy
Default : Yes
Forced : No

[collapse]
Download
Release Notes

This release has 2CH AC3 Audio untouched from the Source. Only video is ReEncoded.

[collapse]


MTV.Video.Music.Awards.2017.720p.HDTV.2CH.x265.HEVC-PSA

Info

General
File size : 1.37 GB
Duration : 2h 10mn 19sc
Source : MTV.Video.Music.Awards.2017.720p.HDTV.x264-QPEL | 3.51 GB

Video
Format : HEVC
Format/Info : High Efficiency Video Coding
Width : 1 280 pixels
Height : 720 pixels
Display aspect ratio : 16:9
Frame rate mode : Constant
Frame rate : 29.970 (30000/1001) FPS
Color space : YUV
Chroma subsampling : 4:2:0
Bit depth : 8 bits
Default : Yes
Forced : No

Audio
Format : MPEG Audio
Format version : Version 1
Format profile : Layer 2
Codec ID : A_MPEG/L2
Channel(s) : 2 channels
Sampling rate : 48.0 kHz
Compression mode : Lossy
Default : Yes
Forced : No

[collapse]
Download
Release Notes

This release has 2CH MP2 Audio untouched from the Source. Only video is ReEncoded.

[collapse]

You may also like...

Leave a Reply

Please Login to comment